18+.All.About.Nina.2018.HDRip.XviD.AC3.With Sample.LLG

seeders: 4     leechers: 3     updated: 6 hours ago

Downloading Seeding from 0 peers
of -
0 b/s / 0 b/s

Warning! Use a VPN When Downloading Torrents.


Your IP Address is 2001:9b0:10:2104:216:3eff:fe54:50dd Location is SE.
Hide your IP ADDRESS with a VPN!

Get VPN App Mac Now!


    18+.All.About.Nina.2018.HDRip.XviD.AC3.With Sample.LLG ( 1.06 GB )
    Sample 2.ts9.67 MB
    SAMPLE.ts17.81 MB
    18+.All.About.Nina.2018.HDRip.XviD.AC3.With Sample.LLG.mp41.04 GB

    By the way you can play this film on Mac with Elmedia Player

    quote:




    ******************************Thumbnail:**********************




    ******************************Screenshots:********************

    Screenshot 1

    Screenshot 2

    Screenshot 3

    Screenshot 4

    Screenshot 5

    Screenshot 6

    Screenshot 7

    Screenshot 8

    Screenshot 9

    Screenshot 10


    ***************************************************************
    General
    18+.All.About.Nina.2018.HDRip.XviD.AC3.LLG.mp4
    Format                                   : MPEG-4
    Format profile                           : Base Media
    Codec ID                                 : isom (isom/iso2/avc1/mp41)
    File size                                : 1.04 GiB
    Duration                                 : 1 h 40 min
    Overall bit rate mode                    : Variable
    Overall bit rate                         : 1 471 kb/s
    Writing application                      : Lavf57.83.100

    Video
    ID                                       : 1
    Format                                   : AVC
    Format/Info                              : Advanced Video Codec
    Format profile                           : [email protected]
    Format settings                          : CABAC / 1 Ref Frames
    Format settings, CABAC                   : Yes
    Format settings, Reference frames        : 1 frame
    Codec ID                                 : avc1
    Codec ID/Info                            : Advanced Video Coding
    Duration                                 : 1 h 40 min
    Bit rate mode                            : Variable
    Bit rate                                 : 1 084 kb/s
    Maximum bit rate                         : 3 600 kb/s
    Width                                    : 720 pixels
    Height                                   : 304 pixels
    Display aspect ratio                     : 2.35:1
    Frame rate mode                          : Constant
    Frame rate                               : 23.976 (23976/1000) FPS
    Color space                              : YUV
    Chroma subsampling                       : 4:2:0
    Bit depth                                : 8 bits
    Scan type                                : Progressive
    Bits/(Pixel*Frame)                       : 0.207
    Stream size                              : 782 MiB (74%)
    Language                                 : English
    Menus                                    : 3
    Codec configuration box                  : avcC

    Audio
    ID                                       : 2
    Format                                   : AC-3
    Format/Info                              : Audio Coding 3
    Commercial name                          : Dolby Digital
    Codec ID                                 : ac-3
    Duration                                 : 1 h 40 min
    Bit rate mode                            : Constant
    Bit rate                                 : 384 kb/s
    Channel(s)                               : 6 channels
    Channel layout                           : L R C LFE Ls Rs
    Sampling rate                            : 48.0 kHz
    Frame rate                               : 31.250 FPS (1536 SPF)
    Bit depth                                : 16 bits
    Compression mode                         : Lossy
    Stream size                              : 277 MiB (26%)
    Language                                 : English
    Service kind                             : Complete Main
    Default                                  : Yes


    ***************************************************************











    Torrent Hash: F2DE46D89EE31A12CEABDAEFEF0433FD3B5F650C


    Num Trackers: 9 trackers




    TRACKER'S LIST COMPATIBLE WITH BITTORRENT CLIENT


    TrackerSeedersLeechersCompletedUpdated
    udp://retracker.lanta-net.ru:2710/announce 0 1 0 5 days
    udp://torrentclub.tech:6969/announce 0 1 0 5 days
    udp://open.demonii.si:1337/announce 4 3 0 5 days
    udp://tracker.coppersurfer.tk:6969/announce 4 2 0 5 days
    udp://tracker.leechers-paradise.org:6969/announce 1 3 0 5 days
    udp://tracker.uw0.xyz:6969/announce 0 1 0 5 days
    udp://denis.stalker.upeer.me:6969/announce 0 1 0 5 days
    udp://tracker.internetwarriors.net:1337/announce 0 1 0 5 days
    udp://bt.xxxtracker.unblockninja.info:2710/announce 0 1 0 5 days

    No comments yet.